[Login] or [Signup]
Login
Username:
Password:
[Signup]
[Recover Account]


Poll


You must be logged in to view polls



Torrent Details For "Layla M. (2016) | 1080p NF | WEB-HD | x264 Esub::RAFI::"

Layla M. (2016) | 1080p NF | WEB-HD | x264 Esub::RAFI::

Download this torrent | Magnet Download
Health:
Seeds: 0
Leechers: 0
Completed:
Last Checked: 12-02-2019 14:08:40
External Torrent
Update Stats
Download Magnet


Poster


Watch-Free-HD     Download

Details
Name:Layla M. (2016) | 1080p NF | WEB-HD | x264 Esub::RAFI::
Description:
 



==================================================
MEDIA INFORMATION
==================================================

Complete name : Layla M. (2016)  | 1080p NF | WEB-HD | x264 Esub::RAFI::
Format : Matroska
Format version : Version 4 / Version 2
File size : 1.75 GiB
Duration : 1h 34mn
Overall bit rate : 2 653 Kbps
Encoded date : UTC 2017-10-09T13:24:14Z
Writing application : HandBrake 1.0.7 2017040900
Writing library : Lavf57.7.2

Video
ID : 1
Format : AVC
Format/Info : Advanced Video Codec
Format profile : [email protected]
Format settings, CABAC : Yes
Format settings, ReFrames : 4 frames
Codec ID : V_MPEG4/ISO/AVC
Duration : 1h 34mn
Bit rate : 2 198 Kbps
Width : 720 pixels
Height : 300 pixels
Display aspect ratio : 2.40:1
Frame rate mode : Constant
Frame rate : 25.000 fps
Color space : YUV
Chroma subsampling : 4:2:0
Bit depth : 8 bits
Scan type : Progressive
Bits/(Pixel*Frame) : 0.407
Stream size : 1.42 GiB (81%)
Writing library : x264 core 148 r2708 86b7198
Default : Yes
Forced : No

Audio
ID : 2
Format : AC-3
Format/Info : Audio Coding 3
Mode extension : CM (complete main)
Format settings, Endianness : Big
Codec ID : A_AC3
Duration : 1h 34mn
Bit rate mode : Constant
Bit rate : 448 Kbps
Channel count : 6 channels
Channel positions : Front: L C R, Side: L R, LFE
Sampling rate : 48.0 KHz
Bit depth : 16 bits
Compression mode : Lossy
Delay relative to video : -5ms
Stream size : 302 MiB (17%)
Title : Surround
Language : Dutch
Default : Yes
Forced : No

Text #1
ID : 3
Format : VobSub
Codec ID : S_VOBSUB
Codec ID/Info : The same subtitle format used on DVDs
Language : Dutch
Default : No
Forced : No

Text #2
ID : 4
Format : VobSub
Codec ID : S_VOBSUB
Codec ID/Info : The same subtitle format used on DVDs
Language : French
Default : No
Forced : No

Text #3
ID : 5
Format : VobSub
Codec ID : S_VOBSUB
Codec ID/Info : The same subtitle format used on DVDs
Default : No
Forced : No



==================================================
SCREENSHOTS:
==================================================

 

 

 

 

 

 

 

 

:love  :love  :love  :love  :love  :love  :love  :love  :love  :love  :love  :love  :love  :love  :love  :love  :love  :love  :love  :love  :love  :love  :love  :love  :love  :love  :love  :love  :love  :love  :love  :love  :love  :love  :love  :love  :love  :love  :love  :love  :love  :love  :love  :love  :love  :love  :love  :love  :love  :love  :love  :love  :love  :love  :love  :love  :love  :love  :love  :love  :love  :love  :love  :love  :love  :love  :love  :love  :love  :love  :love  :love  :love  :love  :love
Category:Movies > WEB-HD
Lang:English  English
Total Size:1.60 GB
Info Hash:bfb5c10a9e918e8ce6667e2f656cb4b63b8d5a7e
Added By:RAFI
Date Added:12-02-2019 14:08:40
Views:101
Hits:5

Download Torrent

Ratings:Not Yet Rated (Log in to rate it)

  


Tracker:
udp://tracker.leechers-paradise.org:6969/announce

This Torrent also has backup trackers
URLSeedersLeechersCompleted
http://tracker.opentrackr.org/announce000
http://tracker.trackerfix.com/announce000
http://announce.torrentsmd.com:6969/announce000
http://tracker2.wasabii.com.tw:6969/announce000
http://bigfoot1942.sektori.org:6969/announce000


File List: 


Comments

No comments still posted

Powered by 10 Hamsters v2-svn -|- Page Generated In 1.379569 secs.
-|- RSS FEED
Theme By: Nikkbu